За последнюю неделю опубликовано 51 новых материалов.
Инструкция новичку Путеводитель по форуму Прокси для Telegram Показать подсказки , это бомба!

Скачать 7 ящиков / 7 cajas / 7 Boxes (2012) BDRip 1080p от HDReactor | Лицензия бесплатно через торрент

  • Поучаствуй (в качестве покупателя) в любых пяти совместных покупках (кроме завершённых и "Моментальных") и получи группу "Новичок" навсегда -> ссылка на раздел
  • Получай до 480 рублей за каждого приглашенного пользователя!
    представляем Вам очередное расширение партнерской программы, подробности описаны тут -> ссылка
  • 90% материалов доступно к скачиванию после простой регистрации!
    Если же ты хочешь скачивать материалы без требования оставлять отзывы то получи группу "Новичок", 10 способов повышения описаны тут -> ссылка
  • К сожалению количество битых ссылок растет и мы уже не можем их оперативно восстанавливать поэтому просим помощи у каждого нашего пользователя.
    С сегодняшнего дня, за каждую восстановленную ссылку мы заплатим Вам.
    Подробнее тут -> ссылка
  • Перенесем твои заслуги с другого ресурса!
    Мы понимаем как сложно прокачивать аккаунты на форумах, вроде раскачал аккаунт, а тут появляется ресурс в 100 раз круче но тоже с системой прокачки и снова качать аккаунт...
    Предлагаем вам перенести Ваши заслуги на другом подобном ресурсе к нам.
    Подробности описаны тут -> ссылка
  • Вы можете получать по 2.5% с каждой покупки и продажи на маркете! Подробности в теме Партнёрская программа
Если Вы не хотите скачивать, Вы всегда можетепосмотретьонлайн, просто нажмите кнопку ниже :

Открыть плеер

Torrent_Bot

Торрент-Бот
Бот форума
4 Окт 2016
91
164
20

Информация о фильме
Название: 7 ящиков
Оригинальное название: 7 cajas
Год выпуска: 2012
Жанр:Триллер, криминал
Выпущено: Парагвай, Испания, Maneglia - Schémbori Realizadores
Режиссер: Хуан Карлос Манеглиа, Тана Шембори
В ролях: Сельсо Франко, Лали Гонсалес, Ману Портильо, Марио Тоньянес, Нелли Дэвэлос, Роберто Кардозо, Чжин Хюк Джонни Ким, Луис Гутиэррец, Лилиана Альварес, Жуниор Родригес, Стивен Джанг

О фильме: Главный герой получает загадочное предложение, от которого невозможно отказаться. Герою предлагают доставить 7 ящиков с таинственным содержимым за щедрое вознаграждение. Но легкая «халтурка» оборачивается смертельно опасными «американскими горками»…



Продолжительность: 01:45:27
Перевод: Профессиональный многоголосый
Субтитры: Русские, английские

Файл
Качество: BDRip (1080p)
Видео: MPEG-4 AVC, 9894 Кбит/с, 1920x1064
Аудио #1: Русский (AC3, 6 ch, 384 Кбит/с)
Аудио #2: испанский (AC3, 2 ch, 256 Кбит/с)

МедиаИнфо
Полное имя : E:7.Boxes.2012.BDRip.1080p.HDReactor.mkv
Формат : Matroska
Версия формата : Version 2
Размер файла : 7,76 Гбайт
Продолжительность : 1 ч. 45 м.
Общий поток : 10,5 Мбит/сек
Название фильма : ~V ad~
Дата кодирования : UTC 2019-07-03 12:44:08
Программа кодирования : mkvmerge v6.5.0 ('Isn't she lovely') built on Oct 20 2013 12:50:05
Библиотека кодирования : libebml v1.3.0 + libmatroska v1.4.1
Обложка : Yes
Attachments : cover.jpg

Видео
Идентификатор : 1
Формат : AVC
Формат/Информация : Advanced Video Codec
Профиль формата : [email protected]
Настройки формата : CABAC / 4 Ref Frames
Параметр CABAC формата : Да
Параметр RefFrames формата : 4 кадра
Идентификатор кодека : V_MPEG4/ISO/AVC
Продолжительность : 1 ч. 45 м.
Битрейт : 9894 Кбит/сек
Ширина : 1920 пикселей
Высота : 1064 пикселя
Соотношение сторон : 16:9
Режим частоты кадров : Постоянный
Частота кадров : 23,976 (24000/1001) кадра/сек
Цветовое пространство : YUV
Субдискретизация насыщенности : 4:2:0
Битовая глубина : 8 бит
Тип развёртки : Прогрессивная
Бит/(Пиксели*Кадры) : 0.202
Размер потока : 7,14 Гбайт (92%)
Заголовок : ~V~
Библиотека кодирования : x264 core 157 r2945 72db437
Настройки программы : cabac=1 / ref=4 / deblock=1:-3:-3 / analyse=0x3:0x133 / me=umh / subme=11 / psy=1 / psy_rd=1.00:0.00 / mixed_ref=1 / me_range=32 / chroma_me=1 / trellis=2 / 8x8dct=1 / cqm=0 / deadzone=21,11 / fast_pskip=0 / chroma_qp_offset=-2 / threads=12 / lookahead_threads=1 / sliced_threads=0 / nr=0 / decimate=0 / interlaced=0 / bluray_compat=0 / constrained_intra=0 / bframes=9 / b_pyramid=2 / b_adapt=2 / b_bias=0 / direct=3 / weightb=1 / open_gop=0 / weightp=2 / keyint=240 / keyint_min=23 / scenecut=40 / intra_refresh=0 / rc=2pass / mbtree=0 / bitrate=9894 / ratetol=1.0 / qcomp=0.70 / qpmin=0 / qpmax=69 / qpstep=4 / cplxblur=20.0 / qblur=0.5 / ip_ratio=1.28 / pb_ratio=1.30 / aq=1:0.70
Язык : Английский
Default : Да
Forced : Нет

Аудио #1
Идентификатор : 2
Формат : AC-3
Формат/Информация : Audio Coding 3
Коммерческое название : Dolby Digital
Идентификатор кодека : A_AC3
Продолжительность : 1 ч. 45 м.
Вид битрейта : Постоянный
Битрейт : 384 Кбит/сек
Каналы : 6 каналов
Channel layout : L R C LFE Ls Rs
Частота : 48,0 КГц
Частота кадров : 31,250 кадров/сек (1536 SPF)
Битовая глубина : 16 бит
Метод сжатия : С потерями
Размер потока : 290 Мбайт (4%)
Заголовок : MVO
Язык : Русский
Service Kind : Complete Main
Default : Да
Forced : Нет

Аудио #2
Идентификатор : 3
Формат : AC-3
Формат/Информация : Audio Coding 3
Коммерческое название : Dolby Digital
Идентификатор кодека : A_AC3
Продолжительность : 1 ч. 45 м.
Вид битрейта : Постоянный
Битрейт : 256 Кбит/сек
Каналы : 2 канала
Channel layout : L R
Частота : 48,0 КГц
Частота кадров : 31,250 кадров/сек (1536 SPF)
Битовая глубина : 16 бит
Метод сжатия : С потерями
Размер потока : 193 Мбайт (2%)
Язык : Испанский
Service Kind : Complete Main
Default : Нет
Forced : Нет

Текст #1
Идентификатор : 4
Формат : UTF-8
Идентификатор кодека : S_TEXT/UTF8
Идентификатор кодека/Информация : UTF-8 Plain Text
Язык : Русский
Default : Нет
Forced : Нет

Текст #2
Идентификатор : 5
Формат : UTF-8
Идентификатор кодека : S_TEXT/UTF8
Идентификатор кодека/Информация : UTF-8 Plain Text
Язык : Английский
Default : Нет
Forced : Нет

Меню
00:00:00.000 : en:Chapter 1
00:08:20.124 : en:Chapter 2
00:17:29.256 : en:Chapter 3
00:29:43.490 : en:Chapter 4
00:36:52.960 : en:Chapter 5
00:43:38.157 : en:Chapter 6
00:51:54.903 : en:Chapter 7
00:59:12.882 : en:Chapter 8
01:09:53.731 : en:Chapter 9
01:16:03.100 : en:Chapter 10
01:21:43.064 : en:Chapter 11
01:32:45.893 : en:Chapter 12
01:39:55.864 : en:Chapter 13
Скриншоты

Сэмпл
Релиз от:
 

Вложения

  • 20,8 KB Просмотры: 1
    Личеров 0
    Сидеров 0
    Файлов 1
    Объем 7,8 GB

Привет!

Мы группа людей которые решили помочь другим в решении их проблем, а так же пользователям с поиском самых свежих и качественных инфопродуктов. За 4 с небольшим месяца мы создали этот форум на который заходят ежедневно тысячи человек и посещаемость постоянно растёт. Мы создали панель лицензирования для защиты PHP скриптов от воровства и SEO панель для мониторинга наших сайтов и выбора верной стратегии их развития. Мы надеемся что то что мы создали пригодится Вам и возможно Вы поможете нам развиваться и совершенствоваться вместе с Вами.

Статистика форума

Темы
410.572
Сообщения
469.128
Пользователи
86.228
Новый пользователь
ItKristina

Приложения форума для iOS и Android


У ркн там нет власти ;)
Приватные разговоры
Помощь Пользователи
    Вы не присоединились ни к одной комнате.