За последнюю неделю опубликовано 64 новых материалов.
Инструкция новичку Путеводитель по форуму Прокси для Telegram Показать подсказки , это бомба!

Скачать 7 часов на соблазнение / 7 ore per farti innamorare (2020) WEB-DLRip 720p | iTunes бесплатно через торрент

  • Поучаствуй (в качестве покупателя) в любых пяти совместных покупках (кроме завершённых и "Моментальных") и получи группу "Новичок" навсегда -> ссылка на раздел
  • Получай до 480 рублей за каждого приглашенного пользователя!
    представляем Вам очередное расширение партнерской программы, подробности описаны тут -> ссылка
  • 90% материалов доступно к скачиванию после простой регистрации!
    Если же ты хочешь скачивать материалы без требования оставлять отзывы то получи группу "Новичок", 10 способов повышения описаны тут -> ссылка
  • К сожалению количество битых ссылок растет и мы уже не можем их оперативно восстанавливать поэтому просим помощи у каждого нашего пользователя.
    С сегодняшнего дня, за каждую восстановленную ссылку мы заплатим Вам.
    Подробнее тут -> ссылка
  • Перенесем твои заслуги с другого ресурса!
    Мы понимаем как сложно прокачивать аккаунты на форумах, вроде раскачал аккаунт, а тут появляется ресурс в 100 раз круче но тоже с системой прокачки и снова качать аккаунт...
    Предлагаем вам перенести Ваши заслуги на другом подобном ресурсе к нам.
    Подробности описаны тут -> ссылка
  • Вы можете получать по 2.5% с каждой покупки и продажи на маркете! Подробности в теме Партнёрская программа
Если Вы не хотите скачивать, Вы всегда можетепосмотретьонлайн, просто нажмите кнопку ниже :

Открыть плеер

Torrent_Bot

Торрент-Бот
Бот форума
4 Окт 2016
92
160
20



Информация о фильме
Название: 7 часов на соблазнение
Оригинальное название: 7 ore per farti innamorare
Год выхода: 2020
Жанр: комедия
Режиссер: Джампаоло Морелли
В ролях: Джампаоло Морелли, Серена Росси, Диана Дель Буфало, Массимилиано Галло, Фабио Бальсамо, Синция Мирабелла, Антония Труппо

О фильме:
Искусство соблазнения - это наука, и, научившись ее приемам, можно добиться расположения любой красотки всего за 7 часов. В этом твердо убеждена Валерия, чей курс по соблазнению пользуется огромной популярностью у одиноких мужчин. Однажды к ней записывается Джулио, который хочет вернуть расположение своей бывшей невесты. Валерия помогает ему разработать план действий. Однако в ходе реализации этого плана Джулио и Валерию ждут неожиданные открытия. Так ли предсказуема любовь или это загадка, которая не подчиняется никаким законам?



Страна: Италия
Студия: Italian International Film, Vision Distribution, Ministero dei Beni e delle Attivita Culturali e del Turismo
Продолжительность: 01:34:32
Перевод: Профессиональный (многоголосый, закадровый) | iTunes
Субтитры: нет

Файл
Формат: Matroska
Качество: WEB-DLRip 720p
Видео: 1280x534 at 24.000 fps, [email protected], ~2547 kbps, 0.155 bpp
Аудио: AC3, 6 ch, ~384 kbps - | Русский | -
Формат субтитров: softsub (SRT)

***Релиз от:-=DoMiNo=-

M/I
x264 [info]: frame I:1575 Avg QP:16.81 size: 76269
x264 [info]: frame P:34741 Avg QP:18.35 size: 26531
x264 [info]: frame B:99816 Avg QP:21.10 size: 7655
x264 [info]: consecutive B-frames: 1.8% 3.0% 4.1% 80.3% 3.9% 6.1% 0.3% 0.3% 0.2%

General
Format : Matroska
Format version : Version 4
File size : 1.94 GiB
Duration : 1 h 34 min
Overall bit rate : 2 933 kb/s
Movie name : 7 часов на соблазнение.(2020).WEB-DLRip.720p.[-=DoMiNo=-]
Encoded date : UTC 2020-08-08 13:15:00
Writing application : mkvmerge v49.0.0 ('Sick Of Losing Soulmates') 64-bit
Writing library : libebml v1.4.0 + libmatroska v1.6.1
Cover : Yes
Attachments : Cover.jpg / Cover 2.jpg

Video
ID : 1
Format : AVC
Format/Info : Advanced Video Codec
Format profile : [email protected]
Format settings : CABAC / 9 Ref Frames
Format settings, CABAC : Yes
Format settings, Reference : 9 frames
Codec ID : V_MPEG4/ISO/AVC
Duration : 1 h 34 min
Bit rate : 2 547 kb/s
Width : 1 280 pixels
Height : 534 pixels
Display aspect ratio : 2.40:1
Frame rate mode : Constant
Frame rate : 24.000 FPS
Color space : YUV
Chroma subsampling : 4:2:0
Bit depth : 8 bits
Scan type : Progressive
Bits/(Pixel*Frame) : 0.155
Stream size : 1.68 GiB (87%)
Title : -=DoMiNo=-
Writing library : x264 core 161 r3018 db0d417
Encoding settings : cabac=1 / ref=9 / deblock=1:-3:-3 / analyse=0x3:0x133 / me=umh / subme=10 / psy=1 / psy_rd=1.00:0.15 / mixed_ref=1 / me_range=32 / chroma_me=1 / trellis=2 / 8x8dct=1 / cqm=0 / deadzone=21,11 / fast_pskip=0 / chroma_qp_offset=-3 / threads=6 / lookahead_threads=1 / sliced_threads=0 / nr=0 / decimate=1 / interlaced=0 / bluray_compat=0 / constrained_intra=0 / bframes=8 / b_pyramid=2 / b_adapt=2 / b_bias=0 / direct=1 / weightb=1 / open_gop=0 / weightp=2 / keyint=250 / keyint_min=24 / scenecut=40 / intra_refresh=0 / rc_lookahead=60 / rc=crf / mbtree=0 / crf=19.0 / qcomp=0.60 / qpmin=0 / qpmax=69 / qpstep=4 / vbv_maxrate=50000 / vbv_bufsize=62500 / crf_max=0.0 / nal_hrd=none / filler=0 / ip_ratio=1.40 / pb_ratio=1.30 / aq=1:1.00
Language : English
Default : Yes
Forced : No
Color range : Limited
Color primaries : BT.709
Transfer characteristics : BT.709
Matrix coefficients : BT.709

Audio
ID : 2
Format : AC-3
Format/Info : Audio Coding 3
Commercial name : Dolby Digital
Codec ID : A_AC3
Duration : 1 h 34 min
Bit rate mode : Constant
Bit rate : 384 kb/s
Channel(s) : 6 channels
Channel layout : L R C LFE Ls Rs
Sampling rate : 48.0 kHz
Frame rate : 31.250 FPS (1536 SPF)
Compression mode : Lossy
Stream size : 260 MiB (13%)
Title : MVO_[iTunes]
Language : Russian
Service kind : Complete Main
Default : Yes
Forced : No

Menu
00:00:00.000 : en:00:00:00.000
00:06:58.041 : en:00:06:58.041
00:15:03.540 : en:00:15:03.540
00:24:46.122 : en:00:24:46.122
00:32:01.830 : en:00:32:01.830
00:41:10.580 : en:00:41:10.580
00:47:42.455 : en:00:47:42.455
00:55:12.996 : en:00:55:12.996
01:04:54.787 : en:01:04:54.787
01:14:05.827 : en:01:14:05.827
01:20:41.368 : en:01:20:41.368
Скриншоты
 

Вложения

  • 78,6 KB Просмотры: 0
    Личеров 0
    Сидеров 0
    Файлов 1
    Объем 1,9 GB

Привет!

Мы группа людей которые решили помочь другим в решении их проблем, а так же пользователям с поиском самых свежих и качественных инфопродуктов. За 4 с небольшим месяца мы создали этот форум на который заходят ежедневно тысячи человек и посещаемость постоянно растёт. Мы создали панель лицензирования для защиты PHP скриптов от воровства и SEO панель для мониторинга наших сайтов и выбора верной стратегии их развития. Мы надеемся что то что мы создали пригодится Вам и возможно Вы поможете нам развиваться и совершенствоваться вместе с Вами.

Статистика форума

Темы
406.657
Сообщения
465.101
Пользователи
84.679
Новый пользователь
Cheza

Приложения форума для iOS и Android


У ркн там нет власти ;)
Приватные разговоры
Помощь Пользователи
    Вы не присоединились ни к одной комнате.