За последнюю неделю опубликовано 0 новых материалов.
Инструкция новичку Путеводитель по форуму Прокси для Telegram Показать подсказки , это бомба!

Скачать 31 июня (1978) DVDRip от New-Team бесплатно через торрент

  • Поучаствуй (в качестве покупателя) в любых пяти совместных покупках (кроме завершённых и "Моментальных") и получи группу "Новичок" навсегда -> ссылка на раздел
  • Получай до 480 рублей за каждого приглашенного пользователя!
    представляем Вам очередное расширение партнерской программы, подробности описаны тут -> ссылка
  • 90% материалов доступно к скачиванию после простой регистрации!
    Если же ты хочешь скачивать материалы без требования оставлять отзывы то получи группу "Новичок", 10 способов повышения описаны тут -> ссылка
  • К сожалению количество битых ссылок растет и мы уже не можем их оперативно восстанавливать поэтому просим помощи у каждого нашего пользователя.
    С сегодняшнего дня, за каждую восстановленную ссылку мы заплатим Вам.
    Подробнее тут -> ссылка
  • Перенесем твои заслуги с другого ресурса!
    Мы понимаем как сложно прокачивать аккаунты на форумах, вроде раскачал аккаунт, а тут появляется ресурс в 100 раз круче но тоже с системой прокачки и снова качать аккаунт...
    Предлагаем вам перенести Ваши заслуги на другом подобном ресурсе к нам.
    Подробности описаны тут -> ссылка
  • Вы можете получать по 2.5% с каждой покупки и продажи на маркете! Подробности в теме Партнёрская программа
Если Вы не хотите скачивать, Вы всегда можетепосмотретьонлайн, просто нажмите кнопку ниже :

Открыть плеер

Torrent_Bot

Торрент-Бот
Бот форума
4 Окт 2016
79
196
20
Страна: СССР
Производство: Гостелерадио, Мосфильм
Жанр: мюзикл, фэнтези, мелодрама
Год выпуска: 1978
Продолжительность: 02:10:26 (01:04:29 + 01:05:57)

Перевод: не требуется
Оригинальная аудиодорожка: русский
Cубтитры: нет

Режиссер: Леонид Квинихидзе

В ролях:
Николай Еременко младший, Наталья Трубникова, Владимир Зельдин, Владимир Этуш, Людмила Власова, Александр Годунов (озвучание - Алексей Золотницкий), Марина Нудьга, Любовь Полищук, Игорь Ясулович, Эммануил Геллер, Михаил Кокшенов, Владимир Сошальский, Вячеслав Войнаровский, Андрей Бродский, Николай Лопушихин, Мартин Ренский, Ян Янакиев...

Описание:
Действие фильма происходит в двух временных линиях, в вымышленном XII и XXI веках, в Англии, в один фантастический лунный день - 31 июня. Король Мелиот, владыка сказочного Перадора, ищет жениха для дочери, принцессы Мелисенты. Те претенденты на её руку, что живут с ней в одно время, принцессе не подходят. В этот же день житель XXI века художник Сэм Пэйнти ищет образ девушки для рекламы чулок. Увидев Мелисенту в зеркале, Сэм понимает, что нашёл ту, что так долго искал. Злой волшебник Мальгрим устроил недолгую встречу Мелисенты и Сэма на звёздном мосту - Млечном пути. Молодые люди полюбили друг друга с первого взгляда. Но за их соединение Мальгрим просит слишком большую плату - волшебную брошь великого Мерлина, принадлежащую Мелисенте...





Исходник: DVD9 R5
Тип релиза: DVDRip
Контейнер: AVI

Видео: 720x528 (4:3), 25 fps, XviD ~ 1940 kbps avg, 0.204 bit/pixel
Аудио: 48 kHz, Dolby AC3 5.1, 448 kbps
MediaInfo
Общее
Полное имя : 31.iyunya.1978.DVDRip_[Youtracker]_by_AVP Studio.avi
Формат : AVI
Формат/Информация : Audio Video Interleave
Размер файла : 1,08 Гбайт
Продолжительность : 1 ч. 4 м.
Общий поток : 2398 Кбит/сек
Программа кодирования : VirtualDubModRus 1.5.10.2 (build 2542/release)
Библиотека кодирования : VirtualDubMod build 2542/release

Видео
Идентификатор : 0
Формат : MPEG-4 Visual
Профиль формата : Advanced [email protected]
Параметр BVOP формата : 1
Параметр QPel формата : Нет
Параметр GMC формата : Без точки перехода
Параметр матрицы формата : Выборочная
Идентификатор кодека : XVID
Идентификатор кодека/Подсказка : XviD
Продолжительность : 1 ч. 4 м.
Битрейт : 1940 Кбит/сек
Ширина : 720 пикселей
Высота : 528 пикселей
Соотношение сторон : 4:3
Частота кадров : 25,000 кадров/сек
Цветовое пространство : YUV
Субдискретизация насыщенности : 4:2:0
Битовая глубина : 8 бит
Тип развёртки : Прогрессивная
Метод сжатия : С потерями
Бит/(Пиксели*Кадры) : 0.204
Размер потока : 895 Мбайт (81%)
Библиотека кодирования : XviD 73

Аудио
Идентификатор : 1
Формат : AC-3
Формат/Информация : Audio Coding 3
Расширение режима : CM (complete main)
Идентификатор кодека : 2000
Продолжительность : 1 ч. 4 м.
Вид битрейта : Постоянный
Битрейт : 448 Кбит/сек
Каналы : 6 каналов
Расположение каналов : Front: L C R, Side: L R, LFE
Частота : 48,0 КГц
Битовая глубина : 16 бит
Метод сжатия : С потерями
Задержка видео : 322 мс.
Размер потока : 207 Мбайт (19%)
Выравнивание : Разделение по промежуткам
Продолжительность промежутка : 40 мс. (1,00 видеокадр)
Время предзагрузки промежутка : 500 мс
Скриншоты
Чтобы помнили...
Этот мюзикл был показан по телевидению лишь единожды, а потом на долгие десять лет положен "на полку" по той причине, что исполнитель одной из ролей Александр Годунов (придворный музыкант Лэмисон) 23 августа 1979 года, во время гастролей Большого театра в Нью-Йорке, сбежал от "прелестей" социализма в США. Очень уж заметной балетной карьеры на Западе Годунов не сделал. Он был принят в труппу Театра американского балета, где выступал как ведущий танцовщик. В 1982 году контракт с театром не был продлен из-за разногласий с руководителем труппы Михаилом Барышниковым. Некоторое время Годунов выступал с собственной труппой. Как приглашенная звезда, много гастролировал в США, Канаде, Латинской Америке, Австралии, Израиле, Европе, Японии. "Все эти люди давно умерли. Умерли не своей смертью", - промолвил в финале фильма "31 июня" герой Этуша, злой волшебник, хранитель древнего музея, созданного на руинах замка Перадор. И кивнул в сторону скульптуры музыканта Лэмисона. В мае 1995 года Александра Годунова нашли мертвым в собственной квартире в голливудском Городе ангелов. Обстоятельства смерти до сих пор покрыты завесой тайны. Врачи не обнаружили ни следов насилия, ни травм, ни признаков алкоголя или наркотиков в крови. Его имущество и деньги достались случайным людям. И поэтому полиция подозревала, что совершено убийство. Но доказать ничего не удалось. По завещанию тело знаменитого танцовщика было кремировано, а пепел развеян над Тихим океаном.
 

Вложения

  • 12,3 KB Просмотры: 0
    Личеров 0
    Сидеров 0
    Файлов 2
    Объем 2,2 GB

Привет!

Мы группа людей которые решили помочь другим в решении их проблем, а так же пользователям с поиском самых свежих и качественных инфопродуктов. За 4 с небольшим месяца мы создали этот форум на который заходят ежедневно тысячи человек и посещаемость постоянно растёт. Мы создали панель лицензирования для защиты PHP скриптов от воровства и SEO панель для мониторинга наших сайтов и выбора верной стратегии их развития. Мы надеемся что то что мы создали пригодится Вам и возможно Вы поможете нам развиваться и совершенствоваться вместе с Вами.

Статистика форума

Темы
414.370
Сообщения
475.396
Пользователи
96.561
Новый пользователь
starushka

Приложения форума для iOS и Android


У ркн там нет власти ;)
Приватные разговоры
Помощь Пользователи
    Вы не присоединились ни к одной комнате.