За последнюю неделю опубликовано 59 новых материалов.
Инструкция новичку Путеводитель по форуму Прокси для Telegram Показать подсказки , это бомба!

Скачать 30 дней ночи / 30 Days of Night (2007) BDRip 1080p | D, P, A, P2 бесплатно через торрент

  • Поучаствуй (в качестве покупателя) в любых пяти совместных покупках (кроме завершённых и "Моментальных") и получи группу "Новичок" навсегда -> ссылка на раздел
  • Получай до 480 рублей за каждого приглашенного пользователя!
    представляем Вам очередное расширение партнерской программы, подробности описаны тут -> ссылка
  • 90% материалов доступно к скачиванию после простой регистрации!
    Если же ты хочешь скачивать материалы без требования оставлять отзывы то получи группу "Новичок", 10 способов повышения описаны тут -> ссылка
  • К сожалению количество битых ссылок растет и мы уже не можем их оперативно восстанавливать поэтому просим помощи у каждого нашего пользователя.
    С сегодняшнего дня, за каждую восстановленную ссылку мы заплатим Вам.
    Подробнее тут -> ссылка
  • Перенесем твои заслуги с другого ресурса!
    Мы понимаем как сложно прокачивать аккаунты на форумах, вроде раскачал аккаунт, а тут появляется ресурс в 100 раз круче но тоже с системой прокачки и снова качать аккаунт...
    Предлагаем вам перенести Ваши заслуги на другом подобном ресурсе к нам.
    Подробности описаны тут -> ссылка
  • Вы можете получать по 2.5% с каждой покупки и продажи на маркете! Подробности в теме Партнёрская программа
Если Вы не хотите скачивать, Вы всегда можетепосмотретьонлайн, просто нажмите кнопку ниже :

Открыть плеер

Torrent_Bot

Торрент-Бот
Бот форума
4 Окт 2016
90
168
20
Информация о фильме
Название: 30 дней ночи
Оригинальное название: 30 Days of Night
Год выхода: 2007
Жанр: ужасы, триллер, драма
Режиссер: Дэвид Слэйд
В ролях: Джош Хартнетт, Мелисса Джордж, Дэнни Хьюстон, Бен Фостер, Марк Бун Джуниор, Марк Рендалл, Эмбер Сейнсбури, Ману Беннетт

О фильме:
Каждый год на 30 дней маленький город Бэрроу на Аляске погружается во тьму. Арктическая ночь — вещь вполне нормальная для этих мест. Но вот однажды, шериф городка Олсон начинает подозревать, что на этот раз тридцатидневный сумрак не пройдёт так гладко. Вампиры подготавливают кровавый рейд на Бэрроу…


5ccf6a33f4f4bf24de7fd2c73e3ce82a.gif
Страна: CША, Новая Зеландия
Студия: Columbia Pictures, Dark Horse Entertainment, Ghost House Pictures
Продолжительность: 01:52:49
Перевод: Дублированный, профессиональный многоголосый, профессиональный двухголосый, авторский.
INFO
Unique ID : 14900647421677096576716885178858504076 (0xB35C2A36A438D9F32620355C89A7F8C)
Complete name : G:BDRIP_stimco30 Days of Night.2007.x264.FHDRip.1080p.stimco.mkv
Format : Matroska
Format version : Version 4 / Version 2
File size : 12.6 GiB
Duration : 1 h 53 min
Overall bit rate : 15.9 Mb/s
Movie name : =30 Days of Night =
Encoded date : UTC 2018-03-06 16:25:35
Writing application : mkvmerge v21.0.0 ('Tardigrades Will Inherit The Earth') 64-bit
Writing library : libebml v1.3.5 + libmatroska v1.4.8
Cover : Yes
Attachments : cover.jpg

Video
ID : 1
Format : AVC
Format/Info : Advanced Video Codec
Format profile : [email protected]
Format settings : CABAC / 5 Ref Frames
Format settings, CABAC : Yes
Format settings, ReFrames : 5 frames
Codec ID : V_MPEG4/ISO/AVC
Duration : 1 h 53 min
Bit rate : 8 283 kb/s
Width : 1 920 pixels
Height : 800 pixels
Display aspect ratio : 2.40:1
Frame rate mode : Constant
Frame rate : 23.976 (24000/1001) FPS
Color space : YUV
Chroma subsampling : 4:2:0
Bit depth : 8 bits
Scan type : Progressive
Bits/(Pixel*Frame) : 0.225
Stream size : 6.54 GiB (52%)
Title : AVC [8283 kbps]
Writing library : x264 core 155 r2901 7d0ff22
Encoding settings : cabac=1 / ref=5 / deblock=1:-3:-3 / analyse=0x3:0x113 / me=umh / subme=10 / psy=1 / psy_rd=1.00:0.10 / mixed_ref=1 / me_range=47 / chroma_me=1 / trellis=2 / 8x8dct=1 / cqm=0 / deadzone=21,11 / fast_pskip=0 / chroma_qp_offset=-2 / threads=6 / lookahead_threads=1 / sliced_threads=0 / nr=0 / decimate=0 / interlaced=0 / bluray_compat=0 / constrained_intra=0 / bframes=8 / b_pyramid=2 / b_adapt=2 / b_bias=0 / direct=3 / weightb=1 / open_gop=0 / weightp=2 / keyint=240 / keyint_min=23 / scenecut=40 / intra_refresh=0 / rc_lookahead=75 / rc=2pass / mbtree=1 / bitrate=8283 / ratetol=1.0 / qcomp=0.70 / qpmin=0 / qpmax=57 / qpstep=4 / cplxblur=20.0 / qblur=0.5 / vbv_maxrate=62500 / vbv_bufsize=78125 / nal_hrd=none / filler=0 / ip_ratio=1.30 / aq=2:0.70
Language : English
Default : Yes
Forced : No

Audio #1
ID : 2
Format : DTS
Format/Info : Digital Theater Systems
Codec ID : A_DTS
Duration : 1 h 53 min
Bit rate mode : Constant
Bit rate : 755 kb/s
Channel(s) : 6 channels
Channel positions : Front: L C R, Side: L R, LFE
Sampling rate : 48.0 kHz
Frame rate : 93.750 FPS (512 SPF)
Bit depth : 24 bits
Compression mode : Lossy
Stream size : 610 MiB (5%)
Title : DUB
Language : Russian
Default : Yes
Forced : No

Audio #2
ID : 3
Format : DTS
Format/Info : Digital Theater Systems
Codec ID : A_DTS
Duration : 1 h 53 min
Bit rate mode : Constant
Bit rate : 1 509 kb/s
Channel(s) : 6 channels
Channel positions : Front: L C R, Side: L R, LFE
Sampling rate : 48.0 kHz
Frame rate : 93.750 FPS (512 SPF)
Bit depth : 24 bits
Compression mode : Lossy
Stream size : 1.19 GiB (9%)
Title : MVO Kinomania
Language : Russian
Default : No
Forced : No

Audio #3
ID : 4
Format : DTS
Format/Info : Digital Theater Systems
Codec ID : A_DTS
Duration : 1 h 53 min
Bit rate mode : Constant
Bit rate : 1 509 kb/s
Channel(s) : 6 channels
Channel positions : Front: L C R, Side: L R, LFE
Sampling rate : 48.0 kHz
Frame rate : 93.750 FPS (512 SPF)
Bit depth : 24 bits
Compression mode : Lossy
Stream size : 1.19 GiB (9%)
Title : VO Esarev
Language : Russian
Default : No
Forced : No

Audio #4
ID : 5
Format : DTS
Format/Info : Digital Theater Systems
Codec ID : A_DTS
Duration : 1 h 53 min
Bit rate mode : Constant
Bit rate : 1 509 kb/s
Channel(s) : 6 channels
Channel positions : Front: L C R, Side: L R, LFE
Sampling rate : 48.0 kHz
Frame rate : 93.750 FPS (512 SPF)
Bit depth : 24 bits
Compression mode : Lossy
Stream size : 1.19 GiB (9%)
Title : VO Nemahov
Language : Russian
Default : No
Forced : No

Audio #5
ID : 6
Format : AC-3
Format/Info : Audio Coding 3
Codec ID : A_AC3
Duration : 1 h 53 min
Bit rate mode : Constant
Bit rate : 448 kb/s
Channel(s) : 6 channels
Channel positions : Front: L C R, Side: L R, LFE
Sampling rate : 48.0 kHz
Frame rate : 31.250 FPS (1536 SPF)
Bit depth : 16 bits
Compression mode : Lossy
Stream size : 362 MiB (3%)
Title : VO Stroev
Language : Russian
Service kind : Complete Main
Default : No
Forced : No

Audio #6
ID : 7
Format : AC-3
Format/Info : Audio Coding 3
Codec ID : A_AC3
Duration : 1 h 53 min
Bit rate mode : Constant
Bit rate : 384 kb/s
Channel(s) : 6 channels
Channel positions : Front: L C R, Side: L R, LFE
Sampling rate : 48.0 kHz
Frame rate : 31.250 FPS (1536 SPF)
Bit depth : 16 bits
Compression mode : Lossy
Stream size : 311 MiB (2%)
Title : DVO 1+1
Language : Ukrainian
Service kind : Complete Main
Default : No
Forced : No

Audio #7
ID : 8
Format : DTS
Format/Info : Digital Theater Systems
Codec ID : A_DTS
Duration : 1 h 53 min
Bit rate mode : Constant
Bit rate : 1 509 kb/s
Channel(s) : 6 channels
Channel positions : Front: L C R, Side: L R, LFE
Sampling rate : 48.0 kHz
Frame rate : 93.750 FPS (512 SPF)
Bit depth : 24 bits
Compression mode : Lossy
Stream size : 1.19 GiB (9%)
Language : English
Default : No
Forced : No

Text #1
ID : 9
Format : UTF-8
Codec ID : S_TEXT/UTF8
Codec ID/Info : UTF-8 Plain Text
Duration : 1 h 44 min
Bit rate : 41 b/s
Count of elements : 751
Stream size : 31.3 KiB (0%)
Language : Russian
Default : No
Forced : No

Text #2
ID : 10
Format : UTF-8
Codec ID : S_TEXT/UTF8
Codec ID/Info : UTF-8 Plain Text
Duration : 1 h 41 min
Bit rate : 27 b/s
Count of elements : 739
Stream size : 20.3 KiB (0%)
Language : English
Default : No
Forced : No

Text #3
ID : 11
Format : UTF-8
Codec ID : S_TEXT/UTF8
Codec ID/Info : UTF-8 Plain Text
Duration : 1 h 46 min
Bit rate : 31 b/s
Count of elements : 993
Stream size : 24.2 KiB (0%)
Title : SDH
Language : English
Default : No
Forced : No

Text #4
ID : 12
Format : UTF-8
Codec ID : S_TEXT/UTF8
Codec ID/Info : UTF-8 Plain Text
Duration : 1 h 5 min
Bit rate : 1 b/s
Count of elements : 23
Stream size : 538 Bytes (0%)
Title : Vampire Dialogue
Language : English
Default : No
Forced : No

Menu
00:00:00.000 : en:Chapter 1
00:06:31.139 : en:Chapter 2
00:14:51.432 : en:Chapter 3
00:21:05.635 : en:Chapter 4
00:28:12.895 : en:Chapter 5
00:35:53.150 : en:Chapter 6
00:41:37.994 : en:Chapter 7
00:50:26.440 : en:Chapter 8
00:54:39.900 : en:Chapter 9
01:02:24.448 : en:Chapter 10
01:09:03.264 : en:Chapter 11
01:14:49.443 : en:Chapter 12
01:23:20.578 : en:Chapter 13
01:26:41.069 : en:Chapter 14
01:33:37.109 : en:Chapter 15
01:38:00.332 : en:Chapter 16
Файл
Кодек: х.264
Качество: BDRip 1080p
Видео: 1920x816, 23.976 fps, 8283 kbps
Звук:
Russian: DTS / 5.1 / 768 kbps - Профессиональный (дублированный)
Russian: DTS / 5.1 / 1509 kbps - многоголосый[Киномания]
Russian: DTS / 5.1 / 1509 kbps - Есарев
Russian: DTS / 5.1 / 1509 kbps - Немахов
Russian: AC3 / 5.1 / 448 kbps - Строев
Ukrainian: AC3 / 5.1 / 384 kbps - двухголосый [1+1]
English: DTS / 5.1 / 1509 kbps
Субтитры: Русские, английские

Скриншоты
184de70ee265429b6e3925acdfdc7474.pngc48b7114b6fe542685a6fafa7269b766.png69eb554f2cc5da6e64ddd4984498c998.png99ec54447ca46c8f63384f1fa586cd99.pnge1bffc126417f58e373799958ad4eec2.png
 

Вложения

Привет!

Мы группа людей которые решили помочь другим в решении их проблем, а так же пользователям с поиском самых свежих и качественных инфопродуктов. За 4 с небольшим месяца мы создали этот форум на который заходят ежедневно тысячи человек и посещаемость постоянно растёт. Мы создали панель лицензирования для защиты PHP скриптов от воровства и SEO панель для мониторинга наших сайтов и выбора верной стратегии их развития. Мы надеемся что то что мы создали пригодится Вам и возможно Вы поможете нам развиваться и совершенствоваться вместе с Вами.

Статистика форума

Темы
410.941
Сообщения
469.355
Пользователи
88.280
Новый пользователь
Валерия88

Приложения форума для iOS и Android


У ркн там нет власти ;)
Приватные разговоры
Помощь Пользователи
    Вы не присоединились ни к одной комнате.