За последнюю неделю опубликовано 28 новых материалов.
Инструкция новичку Путеводитель по форуму Прокси для Telegram Показать подсказки , это бомба!

Скачать 2012 / 2012 (2009) BDRip 1080p | D бесплатно через торрент

  • Поучаствуй (в качестве покупателя) в любых пяти совместных покупках (кроме завершённых и "Моментальных") и получи группу "Новичок" навсегда -> ссылка на раздел
  • Получай до 480 рублей за каждого приглашенного пользователя!
    представляем Вам очередное расширение партнерской программы, подробности описаны тут -> ссылка
  • 90% материалов доступно к скачиванию после простой регистрации!
    Если же ты хочешь скачивать материалы без требования оставлять отзывы то получи группу "Новичок", 10 способов повышения описаны тут -> ссылка
  • К сожалению количество битых ссылок растет и мы уже не можем их оперативно восстанавливать поэтому просим помощи у каждого нашего пользователя.
    С сегодняшнего дня, за каждую восстановленную ссылку мы заплатим Вам.
    Подробнее тут -> ссылка
  • Перенесем твои заслуги с другого ресурса!
    Мы понимаем как сложно прокачивать аккаунты на форумах, вроде раскачал аккаунт, а тут появляется ресурс в 100 раз круче но тоже с системой прокачки и снова качать аккаунт...
    Предлагаем вам перенести Ваши заслуги на другом подобном ресурсе к нам.
    Подробности описаны тут -> ссылка
  • Вы можете получать по 2.5% с каждой покупки и продажи на маркете! Подробности в теме Партнёрская программа
Если Вы не хотите скачивать, Вы всегда можетепосмотретьонлайн, просто нажмите кнопку ниже :

Открыть плеер

Torrent_Bot

Торрент-Бот
Бот форума
4 Окт 2016
93
156
20
Информация о фильме
Название: 2012
Оригинальное название: 2012
Год выхода: 2009
Жанр: Фантастика, боевик, триллер, драма, приключения
Режиссер: Роланд Эммерих / Roland Emmerich
В ролях: Джон Кьюсак, Вуди Харрельсон, Тэнди Ньютон, Чиветел Иджиофор, Златко Бурич, Дэнни Гловер, Аманда Пит, Оливер Платт, Том МакКарти, Хенри О, Рон Селмур, Райан МакДоналд, Патрик Бошо, Лайэм Джеймс, Блу Манкума, Джими Мистри, Йоханн Урб

О фильме:
В результате вспышки на Солнце ядро Земли начинает нагреваться — грядут катастрофы, которых еще не видел мир. Мировые правительства втайне разрабатывают план спасения, но в число избранных войдет лишь малая часть жителей планеты. Остальным придется смириться со своей судьбой или бороться до конца за спасения себя и своей семьи — как придется бороться писателю Джексону (Джон Кьюсак), случайно узнавшему о том, что скоро миру придет конец.



Дополнительная информация:
Исходник (Blu-ray)
BDRip (1080p) и работа со звуком - CergMark
Выполнено из оригинальной DTS-HD MA 5.1ch и дублированной DD дорожек путём замены всех участков с оригинальной речью, отголосками и эхом на аналогичные с дублированной дорожки во всех каналах.
Перевод: Дублированный + Вставки на иностранную речь и надписи из Авторского Профессионального (Гаврилов, Сербин) и пару фраз озвучил CergMark (1:45:35, 02:16:13).
Теперь не нужно читать субтитры на иностранную речь - Они озвучены! - Для тех кто не успевает читать субтитры, и просто лень читать, и т. д....!
Английскую дорожку пихать не стал, для экономии размера файла и для увеличения качества картинки.
Форсированных субтитров: 111 фраз по всему фильму (не считая надписей, которые не переводили в субтитрах)

Страна: США
Студия: Centropolis Entertainment, Farewell Productions, Sony Pictures Entertainment (SPE)
Продолжительность: 02:37:49
Перевод: Дублированный + Вставки на иностранную речь и надписи из перевода авторского профессионального (Гаврилов, Сербин) и пару фраз озвучил CergMark (1:45:35, 02:16:13).

Файл
Формат: MKV
Кодек: x264
Качество: BDRip 1080p (Исходник: Blu-ray)
Видео: 1920x800, 5726 Kbps, 23.976 fps
Звук: Русский (AC3, 6 ch, 640 Кбит/с)
Субтитры-1: Русские (SRT) - Форсированные (2 строчки) 00:44:44 - Совпало на перевод, по этому не было возможности озвучить.
Субтитры-2: Русские (SRT) - Форсированные (для тех кому нравится читать субтитры на иностранную речь)
MI
General
Unique ID : 18150059468840981191694500211741137621 (0xDA793057A7DC350036CCA9477FF9AD5)
Complete name : D:DownloadsВременные файлы2012.(2012).2009.DUB-FULL.BDRip.1080p.mkv
Format : Matroska
Format version : Version 4 / Version 2
File size : 7.00 GiB
Duration : 2 h 37 min
Overall bit rate : 6 349 kb/s
Encoded date : UTC 2018-09-15 01:56:28
Writing application : mkvmerge v20.0.0 ('I Am The Sun') 64-bit
Writing library : libebml v1.3.5 + libmatroska v1.4.8

Video
ID : 1
Format : AVC
Format/Info : Advanced Video Codec
Format profile : [email protected]
Format settings : CABAC / 5 Ref Frames
Format settings, CABAC : Yes
Format settings, ReFrames : 5 frames
Codec ID : V_MPEG4/ISO/AVC
Duration : 2 h 37 min
Bit rate : 5 726 kb/s
Width : 1 920 pixels
Height : 800 pixels
Display aspect ratio : 2.40:1
Frame rate mode : Constant
Frame rate : 23.976 (24000/1001) FPS
Color space : YUV
Chroma subsampling : 4:2:0
Bit depth : 8 bits
Scan type : Progressive
Bits/(Pixel*Frame) : 0.155
Stream size : 6.29 GiB (90%)
Writing library : x264 core 146 r2538 121396c
Encoding settings : cabac=1 / ref=5 / deblock=1:0:0 / analyse=0x1:0x111 / me=umh / subme=11 / psy=1 / psy_rd=1.00:0.15 / mixed_ref=1 / me_range=32 / chroma_me=1 / trellis=2 / 8x8dct=0 / cqm=0 / deadzone=21,11 / fast_pskip=1 / chroma_qp_offset=-3 / threads=6 / lookahead_threads=1 / sliced_threads=0 / nr=0 / decimate=1 / interlaced=0 / bluray_compat=0 / constrained_intra=0 / bframes=4 / b_pyramid=2 / b_adapt=2 / b_bias=0 / direct=3 / weightb=0 / open_gop=0 / weightp=2 / keyint=240 / keyint_min=23 / scenecut=40 / intra_refresh=0 / rc_lookahead=50 / rc=2pass / mbtree=1 / bitrate=5726 / ratetol=1.0 / qcomp=0.60 / qpmin=0 / qpmax=69 / qpstep=4 / cplxblur=20.0 / qblur=0.5 / vbv_maxrate=14000 / vbv_bufsize=14000 / nal_hrd=none / filler=0 / ip_ratio=1.40 / aq=1:1.00
Default : Yes
Forced : No

Audio
ID : 2
Format : AC-3
Format/Info : Audio Coding 3
Commercial name : Dolby Digital
Codec ID : A_AC3
Duration : 2 h 37 min
Bit rate mode : Constant
Bit rate : 640 kb/s
Channel(s) : 6 channels
Channel positions : Front: L C R, Side: L R, LFE
Sampling rate : 48.0 kHz
Frame rate : 31.250 FPS (1536 SPF)
Bit depth : 16 bits
Compression mode : Lossy
Stream size : 722 MiB (10%)
Title : DUB FULL (Дублированный полный с вставками) AC3, 6ch, 640 Kbps
Language : Russian
Service kind : Complete Main
Default : Yes
Forced : No

Text #1
ID : 3
Format : UTF-8
Codec ID : S_TEXT/UTF8
Codec ID/Info : UTF-8 Plain Text
Duration : 4 s 4 ms
Bit rate : 201 b/s
Count of elements : 1
Stream size : 101 Bytes (0%)
Title : Forsed mini (Форсированные 2 строчки) 00:44:44
Language : Russian
Default : Yes
Forced : No

Text #2
ID : 4
Format : UTF-8
Codec ID : S_TEXT/UTF8
Codec ID/Info : UTF-8 Plain Text
Duration : 2 h 9 min
Bit rate : 5 b/s
Count of elements : 111
Stream size : 5.25 KiB (0%)
Title : Forsed (Форсированные)
Language : Russian
Default : No
Forced : No
Скриншоты


Релиз от: CergMark
 

Вложения

  • 18,5 KB Просмотры: 1
    Личеров 0
    Сидеров 0
    Файлов 1
    Объем 7 GB

Привет!

Мы группа людей которые решили помочь другим в решении их проблем, а так же пользователям с поиском самых свежих и качественных инфопродуктов. За 4 с небольшим месяца мы создали этот форум на который заходят ежедневно тысячи человек и посещаемость постоянно растёт. Мы создали панель лицензирования для защиты PHP скриптов от воровства и SEO панель для мониторинга наших сайтов и выбора верной стратегии их развития. Мы надеемся что то что мы создали пригодится Вам и возможно Вы поможете нам развиваться и совершенствоваться вместе с Вами.

Статистика форума

Темы
406.553
Сообщения
464.728
Пользователи
83.462
Новый пользователь
Mortality

Приложения форума для iOS и Android


У ркн там нет власти ;)
Приватные разговоры
Помощь Пользователи
    Вы не присоединились ни к одной комнате.