За последнюю неделю опубликовано 57 новых материалов.
Инструкция новичку Путеводитель по форуму Прокси для Telegram Показать подсказки , это бомба!

Скачать 1917 / 1917 (2019) BDRip 1080p от qqss44 & MegaPeer | Лицензия бесплатно через торрент

  • Поучаствуй (в качестве покупателя) в любых пяти совместных покупках (кроме завершённых и "Моментальных") и получи группу "Новичок" навсегда -> ссылка на раздел
  • Получай до 480 рублей за каждого приглашенного пользователя!
    представляем Вам очередное расширение партнерской программы, подробности описаны тут -> ссылка
  • 90% материалов доступно к скачиванию после простой регистрации!
    Если же ты хочешь скачивать материалы без требования оставлять отзывы то получи группу "Новичок", 10 способов повышения описаны тут -> ссылка
  • К сожалению количество битых ссылок растет и мы уже не можем их оперативно восстанавливать поэтому просим помощи у каждого нашего пользователя.
    С сегодняшнего дня, за каждую восстановленную ссылку мы заплатим Вам.
    Подробнее тут -> ссылка
  • Перенесем твои заслуги с другого ресурса!
    Мы понимаем как сложно прокачивать аккаунты на форумах, вроде раскачал аккаунт, а тут появляется ресурс в 100 раз круче но тоже с системой прокачки и снова качать аккаунт...
    Предлагаем вам перенести Ваши заслуги на другом подобном ресурсе к нам.
    Подробности описаны тут -> ссылка
  • Вы можете получать по 2.5% с каждой покупки и продажи на маркете! Подробности в теме Партнёрская программа
Если Вы не хотите скачивать, Вы всегда можетепосмотретьонлайн, просто нажмите кнопку ниже :

Открыть плеер

Torrent_Bot

Торрент-Бот
Бот форума
4 Окт 2016
92
163
20




Анонсы 1080p от qqss44



Информация о фильме
Название: 1917
Оригинальное название: 1917
Год выхода: 2019
Жанр: военный, боевик, драма, история
Режиссер: Сэм Мендес
В ролях: Эндрю Скотт, Бенедикт Камбербэтч, Колин Фёрт, Ричард Мэдден, Дин-Чарльз Чепмен, Джордж МакКэй, Марк Стронг, Дэниэл Мейс, Эдриан Скарборо, Клэр Дюбюрк и другие.

О фильме:
6 апреля 1917 года, разгар Первой мировой войны, Западный фронт на севере Франции. Британский генерал поручает капралу Блэйку и его сослуживцу смертельно опасную миссию. Они должны пересечь вражескую территорию, вроде бы оставленную германскими войсками, и доставить приказ об отмене наступления во 2-й батальон Девонширского полка, иначе 1600 солдат попадут в ловушку противника, в том числе и брат Блэйка.



Страна: США, Великобритания, Индия, Испания, Канада
Студия: Amblin Partners, DreamWorks, Neal Street Productions
Продолжительность: 01:58:58
Перевод: Дублированный | Лицензия

Файл
Формат: MKV, BDRip 1080p
Видео: MPEG-4 AVC, 8688 Кбит/с, 1920x802
Aудио#1: [RUS] AC3 | 48 KHz | 5.1 (Front: L С R Side: L R) + LFE | ~640 kbps
Субтитры: русские форсированные и полные (отключаемые, srt)
Релиз от: .


Скриншоты
МИ
Общее
Уникальный идентификатор : 219790905959579139744430489459197102542 (0xA55A30508DCD92E1BC14B2B4B57E49CE)
Полное имя : H:1917.(2019).BDRip-1080p.MegaPeer.(qqss44).mkv
Формат : Matroska
Версия формата : Version 2
Размер файла : 7,75 Гбайт
Продолжительность : 1 ч. 58 м.
Общий поток : 9 329 Кбит/сек
Название фильма : 1917.(2019).BDRip-1080p.MegaPeer.(qqss44)
Дата кодирования : UTC 2020-05-22 02:07:00
Программа кодирования : mkvmerge v7.8.0 ('River Man') 32bit built on Apr 3 2015 12:11:22
Библиотека кодирования : libebml v1.3.1 + libmatroska v1.4.2

Видео
Идентификатор : 1
Формат : AVC
Формат/Информация : Advanced Video Codec
Профиль формата : [email protected]
Настройки формата : CABAC / 5 Ref Frames
Параметр CABAC формата : Да
Параметр RefFrames формата : 5 кадров
Идентификатор кодека : V_MPEG4/ISO/AVC
Продолжительность : 1 ч. 58 м.
Битрейт : 8 688 Кбит/сек
Ширина : 1 920 пикселей
Высота : 802 пикселя
Соотношение сторон : 2,40:1
Режим частоты кадров : Постоянный
Частота кадров : 23,976 (24000/1001) кадра/сек
Цветовое пространство : YUV
Субдискретизация насыщенности : 4:2:0
Битовая глубина : 8 бит
Тип развёртки : Прогрессивная
Бит/(Пиксели*Кадры) : 0.235
Размер потока : 7,07 Гбайт (91%)
Библиотека кодирования : x264 core 152 r2851 ba24899
Настройки программы : cabac=1 / ref=5 / deblock=1:-1:-1 / analyse=0x3:0x113 / me=umh / subme=11 / psy=1 / psy_rd=1.00:0.00 / mixed_ref=1 / me_range=32 / chroma_me=1 / trellis=2 / 8x8dct=1 / cqm=0 / deadzone=21,11 / fast_pskip=0 / chroma_qp_offset=-2 / threads=12 / lookahead_threads=2 / sliced_threads=0 / nr=0 / decimate=0 / interlaced=0 / bluray_compat=0 / constrained_intra=0 / bframes=9 / b_pyramid=2 / b_adapt=2 / b_bias=0 / direct=3 / weightb=1 / open_gop=0 / weightp=2 / keyint=250 / keyint_min=23 / scenecut=40 / intra_refresh=0 / rc_lookahead=40 / rc=2pass / mbtree=0 / bitrate=8688 / ratetol=1.0 / qcomp=0.72 / qpmin=0 / qpmax=69 / qpstep=4 / cplxblur=20.0 / qblur=0.5 / vbv_maxrate=50000 / vbv_bufsize=62500 / nal_hrd=none / filler=0 / ip_ratio=1.40 / pb_ratio=1.30 / aq=3:0.90
Язык : English
Default : Да
Forced : Нет
Duration_Source : General_Duration

Аудио
Идентификатор : 2
Формат : AC-3
Формат/Информация : Audio Coding 3
Коммерческое название : Dolby Digital
Идентификатор кодека : A_AC3
Продолжительность : 1 ч. 58 м.
Вид битрейта : Постоянный
Битрейт : 640 Кбит/сек
Каналы : 6 каналов
Channel layout : L R C LFE Ls Rs
Частота : 48,0 КГц
Частота кадров : 31,250 кадров/сек (1536 SPF)
Метод сжатия : С потерями
Размер потока : 545 Мбайт (7%)
Язык : Russian
Service kind : Complete Main
Default : Да
Forced : Нет
Duration_Source : General_Duration

Текст #1
Идентификатор : 3
Формат : UTF-8
Идентификатор кодека : S_TEXT/UTF8
Идентификатор кодека/Информация : UTF-8 Plain Text
Заголовок : FORCED
Язык : Russian
Default : Да
Forced : Нет

Текст #2
Идентификатор : 4
Формат : UTF-8
Идентификатор кодека : S_TEXT/UTF8
Идентификатор кодека/Информация : UTF-8 Plain Text
Заголовок : FULL
Язык : Russian
Default : Нет
Forced : Нет

Меню
00:00:00.000 : en:Chapter 01
00:04:59.424 : en:Chapter 02
00:08:19.374 : en:Chapter 03
00:13:26.639 : en:Chapter 04
00:16:38.789 : en:Chapter 05
00:23:32.494 : en:Chapter 06
00:30:28.660 : en:Chapter 07
00:35:34.549 : en:Chapter 08
00:42:25.376 : en:Chapter 09
00:51:34.091 : en:Chapter 10
00:56:36.310 : en:Chapter 11
01:02:29.079 : en:Chapter 12
01:06:33.573 : en:Chapter 13
01:12:04.320 : en:Chapter 14
01:19:45.197 : en:Chapter 15
01:28:47.822 : en:Chapter 16
01:33:43.451 : en:Chapter 17
01:38:11.594 : en:Chapter 18
01:41:43.681 : en:Chapter 19
01:49:46.580 : en:Chapter 20
 

Вложения

  • 39,6 KB Просмотры: 0
    Личеров 0
    Сидеров 0
    Файлов 1
    Объем 7,8 GB

Привет!

Мы группа людей которые решили помочь другим в решении их проблем, а так же пользователям с поиском самых свежих и качественных инфопродуктов. За 4 с небольшим месяца мы создали этот форум на который заходят ежедневно тысячи человек и посещаемость постоянно растёт. Мы создали панель лицензирования для защиты PHP скриптов от воровства и SEO панель для мониторинга наших сайтов и выбора верной стратегии их развития. Мы надеемся что то что мы создали пригодится Вам и возможно Вы поможете нам развиваться и совершенствоваться вместе с Вами.

Статистика форума

Темы
406.698
Сообщения
465.162
Пользователи
84.790
Новый пользователь
wesennijh

Приложения форума для iOS и Android


У ркн там нет власти ;)
Приватные разговоры
Помощь Пользователи
    Вы не присоединились ни к одной комнате.