За последнюю неделю опубликовано 63 новых материалов.
Инструкция новичку Путеводитель по форуму Прокси для Telegram Показать подсказки , это бомба!

Скачать 12 обезьян / Twelve Monkeys (1995) BDRip-HEVC 1080p от Cthulhu | D, P2, A бесплатно через торрент

  • Поучаствуй (в качестве покупателя) в любых пяти совместных покупках (кроме завершённых и "Моментальных") и получи группу "Новичок" навсегда -> ссылка на раздел
  • Получай до 480 рублей за каждого приглашенного пользователя!
    представляем Вам очередное расширение партнерской программы, подробности описаны тут -> ссылка
  • 90% материалов доступно к скачиванию после простой регистрации!
    Если же ты хочешь скачивать материалы без требования оставлять отзывы то получи группу "Новичок", 10 способов повышения описаны тут -> ссылка
  • К сожалению количество битых ссылок растет и мы уже не можем их оперативно восстанавливать поэтому просим помощи у каждого нашего пользователя.
    С сегодняшнего дня, за каждую восстановленную ссылку мы заплатим Вам.
    Подробнее тут -> ссылка
  • Перенесем твои заслуги с другого ресурса!
    Мы понимаем как сложно прокачивать аккаунты на форумах, вроде раскачал аккаунт, а тут появляется ресурс в 100 раз круче но тоже с системой прокачки и снова качать аккаунт...
    Предлагаем вам перенести Ваши заслуги на другом подобном ресурсе к нам.
    Подробности описаны тут -> ссылка
  • Вы можете получать по 2.5% с каждой покупки и продажи на маркете! Подробности в теме Партнёрская программа
Если Вы не хотите скачивать, Вы всегда можетепосмотретьонлайн, просто нажмите кнопку ниже :

Открыть плеер

Torrent_Bot

Торрент-Бот
Бот форума
4 Окт 2016
82
186
20
43e20d95197c8ed0e90c57f1379a64e9.jpg

Информация о фильме
Название: 12 обезьян
Оригинальное название: Twelve Monkeys
Год выхода: 1995
Жанр: Фантастика, триллер, детектив
Режиссер: Терри Гиллиам
В ролях: Брюс Уиллис, Мэдлин Стоу, Брэд Питт, Кристофер Пламмер, Джозеф Мелито, Джон Седа, Майкл Чэнс, Вернон Кэмпбелл, Х. Майкл Уоллс

О фильме:
2035 год… Чудовищный, неизлечимый вирус уничтожил пять миллиардов человек, то есть 99% населения Земли. Оставшиеся в живых люди вынуждены обитать под землей. Уголовник Джеймс Коул добровольно отправляется в опасное путешествие на машине времени. Он должен попасть в прошлое, чтобы помочь ученым найти источник возникновения этого ужасного вируса и раскрыть загадку таинственных «Двенадцати обезьян»…

2c7e5dedb5137bfa89f7364390dcf492.gif

Страна: США
Продолжительность: 02:09:35
Перевод: Профессиональный: дублированный, двухголосый, одноголосый

Файл
Кодек: HEVC x265 10bit
Качество: BDRip-HEVC 1080p
Видео: 1918x1040, 23.976 кадр/сек, 5974 Кбит/сек, (Main [email protected]@High) 10bit
Звук:
Аудио1: Русская, AC3 384 Кбит/сек, 6 канала(ов),16bit 48,0 КГц Дубляж
Аудио2: Русская, AC3 448 Кбит/сек, 6 канала(ов),16bit 48,0 КГц DVO (Гланц и Королева)
Аудио3: Русская, AC3 192 Кбит/сек, 2 канала(ов),16bit 48,0 КГц AVO (Визгунов)
Аудио4: Русская, AC3 448 Кбит/сек, 6 канала(ов),16bit 48,0 КГц AVO (Гаврилов)
Аудио5: Русская, AC3 448 Кбит/сек, 6 канала(ов),16bit 48,0 КГц AVO (Живов)
Аудио6: English, AC3 448 Кбит/сек, 6 канала(ов),16bit 48,0 КГц
Субтитры: Русские, English
Навигация по главам: Есть

Mediainfo
General
Unique ID : 213514657798622443504341817404639816695 (0xA0A16D63A9E299AF1BC62802BF5A2BF7)
Complete name : F:HEVCTwelve Monkeys (1995) BDRip 1080p [HEVC] 10Bit_Cthulhu.mkv
Format : Matroska
Format version : Version 4 / Version 2
File size : 7.55 GiB
Duration : 2 h 9 min
Overall bit rate : 8 342 kb/s
Movie name : 12_MONKEYS_1995_rip_by_Cthulhu
Encoded date : UTC 2018-03-06 06:34:35
Writing application : mkvmerge v21.0.0 ('Tardigrades Will Inherit The Earth') 64-bit
Writing library : libebml v1.3.5 + libmatroska v1.4.8
Cover : Yes
Attachments : cover.jpg

Video
ID : 1
Format : HEVC
Format/Info : High Efficiency Video Coding
Format profile : Main [email protected]@High
Codec ID : V_MPEGH/ISO/HEVC
Duration : 2 h 9 min
Bit rate : 5 974 kb/s
Width : 1 918 pixels
Height : 1 040 pixels
Display aspect ratio : 1.85:1
Frame rate mode : Constant
Frame rate : 23.976 (24000/1001) FPS
Color space : YUV
Chroma subsampling : 4:2:0
Bit depth : 10 bits
Bits/(Pixel*Frame) : 0.125
Stream size : 5.41 GiB (72%)
Writing library : x265 2.6+49-7219376de42a:[Windows][clang 7.0.0][64 bit] 10bit
Encoding settings : cpuid=1050111 / frame-threads=5 / numa-pools=4 / wpp / no-pmode / no-pme / no-psnr / no-ssim / log-level=3 / input-csp=1 / input-res=1918x1040 / interlace=0 / total-frames=0 / level-idc=41 / high-tier=1 / uhd-bd=0 / ref=5 / allow-non-conformance / no-repeat-headers / annexb / no-aud / no-hrd / info / hash=0 / no-temporal-layers / open-gop / min-keyint=23 / keyint=250 / gop-lookahead=0 / bframes=10 / b-adapt=2 / b-pyramid / bframe-bias=0 / rc-lookahead=40 / lookahead-slices=6 / scenecut=40 / radl=0 / no-intra-refresh / ctu=64 / min-cu-size=8 / rect / no-amp / max-tu-size=32 / tu-inter-depth=2 / tu-intra-depth=2 / limit-tu=0 / rdoq-level=2 / dynamic-rd=0.00 / no-ssim-rd / signhide / no-tskip / nr-intra=0 / nr-inter=0 / no-constrained-intra / no-strong-intra-smoothing / max-merge=3 / limit-refs=3 / no-limit-modes / me=3 / subme=7 / merange=57 / temporal-mvp / weightp / weightb / no-analyze-src-pics / deblock=-3:-3 / no-sao / no-sao-non-deblock / rd=4 / no-early-skip / rskip / no-fast-intra / no-tskip-fast / no-cu-lossless / no-b-intra / no-splitrd-skip / rdpenalty=0 / psy-rd=1.00 / psy-rdoq=0.00 / no-rd-refine / no-lossless / cbqpoffs=0 / crqpoffs=0 / rc=crf / crf=19.0 / qcomp=0.60 / qpstep=4 / stats-write=0 / stats-read=0 / vbv-maxrate=50000 / vbv-bufsize=35714 / vbv-init=0.9 / crf-max=0.0 / crf-min=0.0 / ipratio=1.40 / pbratio=1.30 / aq-mode=1 / aq-strength=0.80 / cutree / zone-count=0 / no-strict-cbr / qg-size=32 / no-rc-grain / qpmax=69 / qpmin=0 / no-const-vbv / sar=1 / overscan=0 / videoformat=5 / range=0 / colorprim=2 / transfer=2 / colormatrix=2 / chromaloc=0 / display-window=0 / max-cll=0,0 / min-luma=0 / max-luma=1023 / log2-max-poc-lsb=8 / vui-timing-info / vui-hrd-info / slices=1 / no-opt-qp-pps / no-opt-ref-list-length-pps / no-multi-pass-opt-rps / scenecut-bias=0.05 / no-opt-cu-delta-qp / no-aq-motion / no-hdr / no-hdr-opt / no-dhdr10-opt / analysis-reuse-level=5 / scale-factor=0 / refine-intra=0 / refine-inter=0 / refine-mv=0 / no-limit-sao / ctu-info=0 / no-lowpass-dct / refine-mv-type=0 / copy-pic=1
Language : English
Default : Yes
Forced : No
Color range : Full

Audio #1
ID : 2
Format : AC-3
Format/Info : Audio Coding 3
Format settings, Endianness : Big
Codec ID : A_AC3
Duration : 2 h 9 min
Bit rate mode : Constant
Bit rate : 384 kb/s
Channel(s) : 6 channels
Channel positions : Front: L C R, Side: L R, LFE
Sampling rate : 48.0 kHz
Frame rate : 31.250 FPS (1536 SPF)
Bit depth : 16 bits
Compression mode : Lossy
Stream size : 356 MiB (5%)
Title : RUS DUB
Language : Russian
Service kind : Complete Main
Default : Yes
Forced : No

Audio #2
ID : 3
Format : AC-3
Format/Info : Audio Coding 3
Format settings, Endianness : Big
Codec ID : A_AC3
Duration : 2 h 9 min
Bit rate mode : Constant
Bit rate : 448 kb/s
Channel(s) : 6 channels
Channel positions : Front: L C R, Side: L R, LFE
Sampling rate : 48.0 kHz
Frame rate : 31.250 FPS (1536 SPF)
Bit depth : 16 bits
Compression mode : Lossy
Delay relative to video : 2 s 1 ms
Stream size : 415 MiB (5%)
Title : RUS DVO (Гланц и Королева)
Language : Russian
Service kind : Complete Main
Default : No
Forced : No

Audio #3
ID : 4
Format : AC-3
Format/Info : Audio Coding 3
Format settings, Endianness : Big
Codec ID : A_AC3
Duration : 2 h 9 min
Bit rate mode : Constant
Bit rate : 192 kb/s
Channel(s) : 2 channels
Channel positions : Front: L R
Sampling rate : 48.0 kHz
Frame rate : 31.250 FPS (1536 SPF)
Bit depth : 16 bits
Compression mode : Lossy
Stream size : 178 MiB (2%)
Title : RUS AVO (Визгунов)
Language : Russian
Service kind : Complete Main
Default : No
Forced : No

Audio #4
ID : 5
Format : AC-3
Format/Info : Audio Coding 3
Format settings, Endianness : Big
Codec ID : A_AC3
Duration : 2 h 9 min
Bit rate mode : Constant
Bit rate : 448 kb/s
Channel(s) : 6 channels
Channel positions : Front: L C R, Side: L R, LFE
Sampling rate : 48.0 kHz
Frame rate : 31.250 FPS (1536 SPF)
Bit depth : 16 bits
Compression mode : Lossy
Delay relative to video : 2 s 1 ms
Stream size : 415 MiB (5%)
Title : RUS AVO (Гаврилов)
Language : Russian
Service kind : Complete Main
Default : No
Forced : No

Audio #5
ID : 6
Format : AC-3
Format/Info : Audio Coding 3
Format settings, Endianness : Big
Codec ID : A_AC3
Duration : 2 h 9 min
Bit rate mode : Constant
Bit rate : 448 kb/s
Channel(s) : 6 channels
Channel positions : Front: L C R, Side: L R, LFE
Sampling rate : 48.0 kHz
Frame rate : 31.250 FPS (1536 SPF)
Bit depth : 16 bits
Compression mode : Lossy
Delay relative to video : 2 s 1 ms
Stream size : 415 MiB (5%)
Title : RUS AVO (Живов)
Language : Russian
Service kind : Complete Main
Default : No
Forced : No

Audio #6
ID : 7
Format : AC-3
Format/Info : Audio Coding 3
Format settings, Endianness : Big
Codec ID : A_AC3
Duration : 2 h 9 min
Bit rate mode : Constant
Bit rate : 448 kb/s
Channel(s) : 6 channels
Channel positions : Front: L C R, Side: L R, LFE
Sampling rate : 48.0 kHz
Frame rate : 31.250 FPS (1536 SPF)
Bit depth : 16 bits
Compression mode : Lossy
Delay relative to video : 2 s 1 ms
Stream size : 415 MiB (5%)
Language : English
Service kind : Complete Main
Default : No
Forced : No

Text #1
ID : 8
Format : UTF-8
Codec ID : S_TEXT/UTF8
Codec ID/Info : UTF-8 Plain Text
Duration : 2 h 4 min
Bit rate : 114 b/s
Count of elements : 1672
Stream size : 104 KiB (0%)
Language : Russian
Default : Yes
Forced : No

Text #2
ID : 9
Format : UTF-8
Codec ID : S_TEXT/UTF8
Codec ID/Info : UTF-8 Plain Text
Duration : 2 h 3 min
Bit rate : 71 b/s
Count of elements : 1655
Stream size : 65.0 KiB (0%)
Language : English
Default : No
Forced : No

Menu
00:00:00.000 : :Глава 1
00:08:34.889 : :Глава 2
00:10:58.366 : :Глава 3
00:16:39.331 : :Глава 4
00:21:29.871 : :Глава 5
00:25:23.897 : :Глава 6
00:29:27.265 : :Глава 7
00:32:46.089 : :Глава 8
00:36:30.271 : :Глава 9
00:37:55.773 : :Глава 10
00:40:00.606 : :Глава 11
00:42:06.232 : :Глава 12
00:44:45.140 : :Глава 13
00:47:46.405 : :Глава 14
00:53:47.849 : :Глава 15
00:57:13.471 : :Глава 16
00:58:50.151 : :Глава 17
01:01:20.677 : :Глава 18
01:03:24.467 : :Глава 19
01:06:33.030 : :Глава 20
01:10:06.743 : :Глава 21
01:15:50.796 : :Глава 22
01:18:27.994 : :Глава 23
01:21:05.235 : :Глава 24
01:23:42.975 : :Глава 25
01:25:14.274 : :Глава 26
01:26:37.358 : :Глава 27
01:29:04.546 : :Глава 28
01:31:33.279 : :Глава 29
01:32:39.262 : :Глава 30
01:35:04.573 : :Глава 31
01:39:24.792 : :Глава 32
01:41:40.511 : :Глава 33
01:44:33.392 : :Глава 34
01:46:33.678 : :Глава 35
01:49:20.428 : :Глава 36
01:50:58.068 : :Глава 37
01:52:48.887 : :Глава 38
01:54:31.364 : :Глава 39
01:56:33.361 : :Глава 40
01:59:07.014 : :Глава 41
02:01:21.565 : :Глава 42
02:04:13.237 : :Глава 43
02:05:32.608 : :Глава 44
02:09:34.516 : :Глава 45
Скриншоты
152354903ebb0e8f0041def150fb13c8.jpg2a0a496135ed77014a3d35f583ca3185.jpg1ef85861b3f0699deae30eb590fdf123.jpge6c48e39d5681e9c7cd126614a02090d.jpg867f0e2015091cd3bac2c9c6fcfa4838.jpg817985ff60282fd1aa9d5331f2f83c9c.jpg72b7df7661b576f439f75b759de96c0b.jpg9ee7b1e5211d30c56af3d2cbc942914d.jpg

Релиз от: Cthulhu
 

Вложения

Привет!

Мы группа людей которые решили помочь другим в решении их проблем, а так же пользователям с поиском самых свежих и качественных инфопродуктов. За 4 с небольшим месяца мы создали этот форум на который заходят ежедневно тысячи человек и посещаемость постоянно растёт. Мы создали панель лицензирования для защиты PHP скриптов от воровства и SEO панель для мониторинга наших сайтов и выбора верной стратегии их развития. Мы надеемся что то что мы создали пригодится Вам и возможно Вы поможете нам развиваться и совершенствоваться вместе с Вами.

Статистика форума

Темы
412.099
Сообщения
471.070
Пользователи
91.347
Новый пользователь
TGR446

Приложения форума для iOS и Android


У ркн там нет власти ;)
Приватные разговоры
Помощь Пользователи
    Вы не присоединились ни к одной комнате.