За последнюю неделю опубликовано 48 новых материалов.
Инструкция новичку Путеводитель по форуму Прокси для Telegram Показать подсказки , это бомба!

Скачать 12-й человек / Den 12. mann (2017) BDRip 1080p от ExKinoRay | HDRezka Studio бесплатно через торрент

  • Поучаствуй (в качестве покупателя) в любых пяти совместных покупках (кроме завершённых и "Моментальных") и получи группу "Новичок" навсегда -> ссылка на раздел
  • Получай до 480 рублей за каждого приглашенного пользователя!
    представляем Вам очередное расширение партнерской программы, подробности описаны тут -> ссылка
  • 90% материалов доступно к скачиванию после простой регистрации!
    Если же ты хочешь скачивать материалы без требования оставлять отзывы то получи группу "Новичок", 10 способов повышения описаны тут -> ссылка
  • К сожалению количество битых ссылок растет и мы уже не можем их оперативно восстанавливать поэтому просим помощи у каждого нашего пользователя.
    С сегодняшнего дня, за каждую восстановленную ссылку мы заплатим Вам.
    Подробнее тут -> ссылка
  • Перенесем твои заслуги с другого ресурса!
    Мы понимаем как сложно прокачивать аккаунты на форумах, вроде раскачал аккаунт, а тут появляется ресурс в 100 раз круче но тоже с системой прокачки и снова качать аккаунт...
    Предлагаем вам перенести Ваши заслуги на другом подобном ресурсе к нам.
    Подробности описаны тут -> ссылка
  • Вы можете получать по 2.5% с каждой покупки и продажи на маркете! Подробности в теме Партнёрская программа
Если Вы не хотите скачивать, Вы всегда можетепосмотретьонлайн, просто нажмите кнопку ниже :

Открыть плеер

Torrent_Bot

Торрент-Бот
Бот форума
4 Окт 2016
93
160
20



Название: 12-й человек
Оригинальное название: Den 12. mann (The 12th Man)
Год выпуска: 2017
Жанр: Военный, драма, реальные события
Режиссер: Харольд Цварт
В ролях: Томас Гуллестад, Джонатан Риз Майерс, Мари Блокхус, Мадс Сьёгард Петтерсен, Вегар Хуль, Хокон Т. Нильсен, Эйрик Рисхольм Велле, Даниэль Фрикстад, Эрик Дирне, Александр Цварт

О фильме: Основан на реальных событиях. Группа бойцов норвежского Сопротивления получает задание добраться до северо-западного норвежского побережья на судне «Браттхольм» и совершить диверсию на одной из немецких авиационных баз. Но миссия потерпела неудачу еще в море: судно было атаковано немецким кораблем и потоплено. Все захвачены в плен. Единственным человеком, которому удалось спастись, оказался Ян Баальсруд. Ему удается добраться до берега и бежать в сторону шведской границы. Преследуемый гестапо, Баальсруд ищет убежище в горах. Ему предстоит выдержать невероятные испытания и реально выжить лишь чудом.



Страна: Норвегия
Студия: Nordisk Film Production AS, Zwart Arbeid
Продолжительность: 02:15:44
Перевод: Профессиональный (многоголосый, закадровый) | HDRezka Studio

БЕЗ КАКОЙ-ЛИБО РЕКЛАМЫ!

Формат: MKV
Качество: BDRip 1080p
Источник: CHD
Видео: MPEG-4 AVC, 1920x800 (2.40:1), 24.000 fps, ~ 9331 kbps avg, 0.253 bit/pixel
Аудио 1: 48 kHz, AC3, 5.1, 448 Kbps | HDRezka Studio | RUS |
Аудио 2: 48 kHz, DTS, 5.1, 1509 Kbps | original | GER |
Субтитры: Русские, английские





ОтчетМедиаИнфо
General
Unique ID : 245893657604386923742228370230714913111 (0xB8FD655536E53A298C525B0507C15157)
Complete name : C:The.12th.Man.2017.BDRip.1080p.ExKinoRay.mkv
Format : Matroska
Format version : Version 2
File size : 10.9 GiB
Duration : 2 h 15 min
Overall bit rate : 11.5 Mb/s
Movie name : The 12th Man 2017 from ExKinoRay
Encoded date : UTC 2020-07-15 00:31:45
Writing application : mkvmerge v5.6.0 ('Kenya Kane') built on May 27 2012 16:44:04
Writing library : libebml v1.2.3 + libmatroska v1.3.0

Video
ID : 1
Format : AVC
Format/Info : Advanced Video Codec
Format profile : [email protected]
Format settings, CABAC : Yes
Format settings, ReFrames : 5 frames
Codec ID : V_MPEG4/ISO/AVC
Duration : 2 h 15 min
Bit rate : 9 331 kb/s
Width : 1 920 pixels
Height : 800 pixels
Display aspect ratio : 2.40:1
Frame rate mode : Constant
Frame rate : 24.000 FPS
Color space : YUV
Chroma subsampling : 4:2:0
Bit depth : 8 bits
Scan type : Progressive
Bits/(Pixel*Frame) : 0.253
Stream size : 8.85 GiB (81%)
Title : [email protected]
Writing library : x264 core 148 r2762+56 6284cf3 t_mod_Custom [[email protected] X86_64]
Encoding settings : cabac=1 / ref=5 / deblock=1:-3:-3 / analyse=0x3:0x133 / me=umh / subme=10 / psy=1 / fade_compensate=0.00 / psy_rd=1.00:0.05 / mixed_ref=1 / me_range=32 / chroma_me=1 / trellis=2 / 8x8dct=1 / cqm=0 / deadzone=21,11 / fast_pskip=0 / chroma_qp_offset=-3 / threads=6 / lookahead_threads=1 / sliced_threads=0 / nr=0 / decimate=0 / interlaced=0 / bluray_compat=0 / constrained_intra=0 / fgo=0 / bframes=10 / b_pyramid=2 / b_adapt=2 / b_bias=0 / direct=3 / weightb=1 / open_gop=0 / weightp=2 / keyint=240 / keyint_min=24 / scenecut=40 / intra_refresh=0 / rc_lookahead=60 / rc=crf / mbtree=1 / crf=15.5000 / qcomp=0.70 / qpmin=0:0:0 / qpmax=69:69:69 / qpstep=4 / vbv_maxrate=62500 / vbv_bufsize=78125 / crf_max=0.0 / nal_hrd=none / filler=0 / ip_ratio=1.40 / aq=1:0.90 / aq-sensitivity=10.00 / aq-factor=1.00:1.00:1.00 / aq2=0 / aq3=0
Language : English
Default : Yes
Forced : No

Audio #1
ID : 2
Format : AC-3
Format/Info : Audio Coding 3
Mode extension : CM (complete main)
Format settings, Endianness : Big
Codec ID : A_AC3
Duration : 2 h 15 min
Bit rate mode : Constant
Bit rate : 448 kb/s
Channel(s) : 6 channels
Channel positions : Front: L C R, Side: L R, LFE
Sampling rate : 48.0 kHz
Frame rate : 31.250 FPS (1536 spf)
Compression mode : Lossy
Stream size : 435 MiB (4%)
Title : MVO (HDRezka Studio)
Language : Russian
Default : Yes
Forced : No

Audio #2
ID : 3
Format : DTS
Format/Info : Digital Theater Systems
Mode : 16
Format settings, Endianness : Big
Codec ID : A_DTS
Duration : 2 h 15 min
Bit rate mode : Constant
Bit rate : 1 509 kb/s
Channel(s) : 6 channels
Channel positions : Front: L C R, Side: L R, LFE
Sampling rate : 48.0 kHz
Frame rate : 93.750 FPS (512 spf)
Bit depth : 24 bits
Compression mode : Lossy
Stream size : 1.43 GiB (13%)
Title : DTS
Language : German
Default : No
Forced : No

Text #1
ID : 4
Format : UTF-8
Codec ID : S_TEXT/UTF8
Codec ID/Info : UTF-8 Plain Text
Title : Full
Language : Russian
Default : No
Forced : No

Text #2
ID : 5
Format : UTF-8
Codec ID : S_TEXT/UTF8
Codec ID/Info : UTF-8 Plain Text
Language : English
Default : No
Forced : No

Menu
00:00:00.000 : en:1
00:04:32.439 : en:2
00:11:15.174 : en:3
00:18:42.913 : en:4
00:21:40.632 : en:5
00:27:22.348 : en:6
00:32:36.119 : en:7
00:37:47.430 : en:8
00:45:13.917 : en:9
00:50:10.712 : en:10
00:56:16.702 : en:11
01:00:34.750 : en:12
01:05:27.125 : en:13
01:09:24.110 : en:14
01:14:36.921 : en:15
01:20:28.314 : en:16

Релиз от:

Автор релиза:
 

Вложения

  • 55,6 KB Просмотры: 0
    Личеров 0
    Сидеров 0
    Файлов 1
    Объем 10,9 GB

Привет!

Мы группа людей которые решили помочь другим в решении их проблем, а так же пользователям с поиском самых свежих и качественных инфопродуктов. За 4 с небольшим месяца мы создали этот форум на который заходят ежедневно тысячи человек и посещаемость постоянно растёт. Мы создали панель лицензирования для защиты PHP скриптов от воровства и SEO панель для мониторинга наших сайтов и выбора верной стратегии их развития. Мы надеемся что то что мы создали пригодится Вам и возможно Вы поможете нам развиваться и совершенствоваться вместе с Вами.

Статистика форума

Темы
406.640
Сообщения
465.116
Пользователи
84.573
Новый пользователь
sobolsm

Приложения форума для iOS и Android


У ркн там нет власти ;)
Приватные разговоры
Помощь Пользователи
    Вы не присоединились ни к одной комнате.