За последнюю неделю опубликовано 52 новых материалов.
Инструкция новичку Путеводитель по форуму Прокси для Telegram Показать подсказки , это бомба!

Скачать 10 свиданий / 10 Things We Should Do Before We Break Up (2020) BDRip 720p от SuperMin | D бесплатно через торрент

  • Поучаствуй (в качестве покупателя) в любых пяти совместных покупках (кроме завершённых и "Моментальных") и получи группу "Новичок" навсегда -> ссылка на раздел
  • Получай до 480 рублей за каждого приглашенного пользователя!
    представляем Вам очередное расширение партнерской программы, подробности описаны тут -> ссылка
  • 90% материалов доступно к скачиванию после простой регистрации!
    Если же ты хочешь скачивать материалы без требования оставлять отзывы то получи группу "Новичок", 10 способов повышения описаны тут -> ссылка
  • К сожалению количество битых ссылок растет и мы уже не можем их оперативно восстанавливать поэтому просим помощи у каждого нашего пользователя.
    С сегодняшнего дня, за каждую восстановленную ссылку мы заплатим Вам.
    Подробнее тут -> ссылка
  • Перенесем твои заслуги с другого ресурса!
    Мы понимаем как сложно прокачивать аккаунты на форумах, вроде раскачал аккаунт, а тут появляется ресурс в 100 раз круче но тоже с системой прокачки и снова качать аккаунт...
    Предлагаем вам перенести Ваши заслуги на другом подобном ресурсе к нам.
    Подробности описаны тут -> ссылка
  • Вы можете получать по 2.5% с каждой покупки и продажи на маркете! Подробности в теме Партнёрская программа
Если Вы не хотите скачивать, Вы всегда можетепосмотретьонлайн, просто нажмите кнопку ниже :

Открыть плеер

Torrent_Bot

Торрент-Бот
Бот форума
4 Окт 2016
93
160
20



Информация о фильме
Название: 10 свиданий
Оригинальное название: 10 Things We Should Do Before We Break Up
Год выхода: 2020
Жанр: Комедия, мелодрама
Режиссер: Галт Нидерхоффер
В ролях: Кристина Риччи, Хамиш Линклэйтер, Линдси Броад, Миа Синклер Дженнесс, Брэйди Дженнесс, Катя Винтер, Джон Абрахамс, Скотт Эдсит, Кэйтлин Менер, Пенни О’Брайэн


Эбигейл — мать-одиночка, воспитывающая двух подростков. После единственной ночи с Беном она неожиданно забеременела. Теперь они должны решить что с этим делать дальше.





Страна: США
Студия: Signature
Продолжительность: 01:14:03
Перевод: Дубляж IVI

Файл
Кодек: H.264
Качество: BDRip 720p
Видео: 1280х694 (1.85:1), 4318 Kbps, 23.976 fps
Звук: Русский (AC-3, 6ch, 384 kbps)
Английский (AC-3, 6ch, 640 kbps)
Субтитры: английские





MI
General
Unique ID : 82634947760753849645475698172246597875 (0x3E2AE97B1853CFDC3D85A409C1A3A0F3)
Complete name : F:ФИЛЬМЫРУТОР10 свиданий.BDRip 720p.mkv
Format : Matroska
Format version : Version 4
File size : 2.76 GiB
Duration : 1 h 14 min
Overall bit rate : 5 344 kb/s
Movie name : 10 свиданий / 10 Things We Should Do Before We Break Up (2020) - #LORDKILL#
Encoded date : UTC 2020-06-22 15:40:47
Writing application : mkvmerge v32.0.0 ('Astral Progressions') 64-bit
Writing library : libebml v1.3.7 + libmatroska v1.5.0

Video
ID : 1
Format : AVC
Format/Info : Advanced Video Codec
Format profile : [email protected]
Format settings : CABAC / 9 Ref Frames
Format settings, CABAC : Yes
Format settings, Reference : 9 frames
Codec ID : V_MPEG4/ISO/AVC
Duration : 1 h 14 min
Bit rate : 4 318 kb/s
Width : 1 280 pixels
Height : 694 pixels
Display aspect ratio : 1.85:1
Frame rate mode : Constant
Frame rate : 23.976 (24000/1001) FPS
Color space : YUV
Chroma subsampling : 4:2:0
Bit depth : 8 bits
Scan type : Progressive
Bits/(Pixel*Frame) : 0.203
Stream size : 2.23 GiB (81%)
Writing library : x264 core 159 r2991 1771b55
Encoding settings : cabac=1 / ref=9 / deblock=1:-2:-2 / analyse=0x3:0x133 / me=umh / subme=10 / psy=1 / psy_rd=1.00:0.20 / mixed_ref=1 / me_range=32 / chroma_me=1 / trellis=2 / 8x8dct=1 / cqm=0 / deadzone=21,11 / fast_pskip=0 / chroma_qp_offset=-3 / threads=12 / lookahead_threads=2 / sliced_threads=0 / nr=0 / decimate=1 / interlaced=0 / bluray_compat=0 / constrained_intra=0 / bframes=8 / b_pyramid=2 / b_adapt=2 / b_bias=0 / direct=1 / weightb=1 / open_gop=0 / weightp=2 / keyint=240 / keyint_min=23 / scenecut=40 / intra_refresh=0 / rc=crf / mbtree=0 / crf=19.5 / qcomp=0.60 / qpmin=0 / qpmax=69 / qpstep=4 / ip_ratio=1.40 / pb_ratio=1.30 / aq=1:1.00
Default : Yes
Forced : No

Audio #1
ID : 2
Format : AC-3
Format/Info : Audio Coding 3
Commercial name : Dolby Digital
Codec ID : A_AC3
Duration : 1 h 14 min
Bit rate mode : Constant
Bit rate : 384 kb/s
Channel(s) : 6 channels
Channel layout : L R C LFE Ls Rs
Sampling rate : 48.0 kHz
Frame rate : 31.250 FPS (1536 SPF)
Compression mode : Lossy
Stream size : 203 MiB (7%)
Title : Дубляж (IVI)
Language : Russian
Service kind : Complete Main
Default : Yes
Forced : Yes

Audio #2
ID : 3
Format : AC-3
Format/Info : Audio Coding 3
Commercial name : Dolby Digital
Codec ID : A_AC3
Duration : 1 h 14 min
Bit rate mode : Constant
Bit rate : 640 kb/s
Channel(s) : 6 channels
Channel layout : L R C LFE Ls Rs
Sampling rate : 48.0 kHz
Frame rate : 31.250 FPS (1536 SPF)
Compression mode : Lossy
Stream size : 339 MiB (12%)
Language : English
Service kind : Complete Main
Default : No
Forced : No

Text
ID : 4
Format : UTF-8
Codec ID : S_TEXT/UTF8
Codec ID/Info : UTF-8 Plain Text
Duration : 1 h 9 min
Bit rate : 63 b/s
Count of elements : 1374
Stream size : 32.3 KiB (0%)
Title : Full
Language : English
Default : Yes
Forced : No

Menu
00:00:00.000 : en:Chapter 1
00:04:38.236 : en:Chapter 2
00:12:48.476 : en:Chapter 3
00:17:42.478 : en:Chapter 4
00:21:24.950 : en:Chapter 5
00:25:04.002 : en:Chapter 6
00:28:54.191 : en:Chapter 7
00:35:51.024 : en:Chapter 8
00:39:04.717 : en:Chapter 9
00:42:59.911 : en:Chapter 10
00:48:16.143 : en:Chapter 11
00:51:46.353 : en:Chapter 12
00:57:52.969 : en:Chapter 13
01:01:34.941 : en:Chapter 14
01:07:39.013 : en:Chapter 15
01:11:17.857 : en:Chapter 16
Скриншоты
Сравнение
 

Вложения

  • 14,8 KB Просмотры: 0
    Личеров 0
    Сидеров 0
    Файлов 1
    Объем 2,8 GB

Привет!

Мы группа людей которые решили помочь другим в решении их проблем, а так же пользователям с поиском самых свежих и качественных инфопродуктов. За 4 с небольшим месяца мы создали этот форум на который заходят ежедневно тысячи человек и посещаемость постоянно растёт. Мы создали панель лицензирования для защиты PHP скриптов от воровства и SEO панель для мониторинга наших сайтов и выбора верной стратегии их развития. Мы надеемся что то что мы создали пригодится Вам и возможно Вы поможете нам развиваться и совершенствоваться вместе с Вами.

Статистика форума

Темы
406.648
Сообщения
465.115
Пользователи
84.620
Новый пользователь
Pestone79

Приложения форума для iOS и Android


У ркн там нет власти ;)
Приватные разговоры
Помощь Пользователи
    Вы не присоединились ни к одной комнате.